* Dettagli Torrent   globale  | Commenti (0) 


- Operazione paura - Kill, Baby...Kill (1966).H264.italian.english.Ac3-MIRCrew -


Download via torrent:
Categoria bittorrent BDRip
Descrizione
Kill, Baby...Kill - Operazione paura (1966).H264.italian.english.Ac3-MIRCrew



NO FOUND ONLY ORIGINAL RELEASE

My release is always in double track audio italian and Original audio
for select it use VLC or dvd player home
not use wmp

Operazione paura

Kill, Baby...Kill

(1966)









Titolo originale Operazione paura
Paese di produzione Italia
Anno 1966
Durata 85 min
Genere orrore, fantastico
Regia Mario Bava
Soggetto Roberto Natale,
Romano Migliorini
Sceneggiatura Mario Bava,



   Giacomo Rossi Stuart: Dott. Paul Eswai
   Erika Blanc: Monica Schuftan
   Fabienne Dali: maga Ruth
   Piero Lulli: ispettore Kruger
   Max Lawrence: borgomastro Karl
   Micaela Esdra: Nadienne
   Franca Dominici: Martha
   Giuseppe Addobbati: becchino
   Mirella Pamphili: Irina Hollander
   Valerio Valeri: fantasma di Melissa Graps
   Giana Vivaldi: baronessa Graps



Un medico viene chiamato in uno sperduto paese dall'ispettore di polizia locale per eseguire un'autopsia sul cadavere di una ragazza morta in circostanze misteriose, ma al suo arrivo viene accolto con ostilità dai locali, che dimostrano subito di nascondere qualcosa.



A Carpathian village is haunted by the ghost of a murderous little girl, prompting a coroner and a medical student to uncover her secrets while a witch attempts to protect the villagers.








[spoiler]
General
Unique ID                                : 198220189239874899022409667582524265496 (0x951FD1DEAB68C8BDB4E6A4D99CD2141
Complete name                            : Operazione paura - Kill Baby Kill (1966).H264.ita.eng-MIRCrew.mkv
Format                                   : Matroska
Format version                           : Version 2
File size                                : 1 004 MiB
Duration                                 : 1h 23mn
Overall bit rate                         : 1 681 Kbps
Movie name                               : MIRCRew
Encoded date                             : UTC 2018-08-21 09:41:50
Writing application                      : mkvmerge v5.4.0 ('Piper') built on Mar 10 2012 13:34:39
Writing library                          : Lavf54.63.100
COPYRIGHT                                : robbyrs

Video
ID                                       : 1
Format                                   : AVC
Format/Info                              : Advanced Video Codec
Format profile                           : [email protected]
Format settings, CABAC                   : Yes
Format settings, ReFrames                : 2 frames
Codec ID                                 : V_MPEG4/ISO/AVC
Duration                                 : 1h 23mn
Bit rate                                 : 1 300 Kbps
Width                                    : 720 pixels
Height                                   : 384 pixels
Display aspect ratio                     : 1.854
Original display aspect ratio            : 1.855
Frame rate mode                          : Variable
Frame rate                               : 23.976 fps
Color space                              : YUV
Chroma subsampling                       : 4:2:0
Bit depth                                : 8 bits
Scan type                                : Progressive
Bits/(Pixel*Frame)                       : 0.196
Stream size                              : 754 MiB (75%)
Writing library                          : x264 core 130 r2273
Encoding settings                        : cabac=1 / ref=2 / deblock=1:0:0 / analyse=0x1:0x131 / me=hex / subme=7 / psy=1 / psy_rd=1.00:0.00 / mixed_ref=0 / me_range=16 / chroma_me=1 / trellis=1 / 8x8dct=0 / cqm=0 / deadzone=21,11 / fast_pskip=1 / chroma_qp_offset=-2 / threads=3 / lookahead_threads=1 / sliced_threads=0 / nr=0 / decimate=1 / interlaced=0 / bluray_compat=0 / constrained_intra=0 / bframes=3 / b_pyramid=0 / b_adapt=1 / b_bias=0 / direct=3 / weightb=1 / open_gop=0 / weightp=2 / keyint=230 / keyint_min=23 / scenecut=40 / intra_refresh=0 / rc_lookahead=40 / rc=abr / mbtree=1 / bitrate=1300 / ratetol=1.0 / qcomp=0.60 / qpmin=10 / qpmax=69 / qpstep=4 / vbv_maxrate=24000 / vbv_bufsize=24000 / nal_hrd=none / ip_ratio=1.40 / aq=1:1.00
Language                                 : Italian
Default                                  : Yes
Forced                                   : No

Audio #1
ID                                       : 2
Format                                   : AC-3
Format/Info                              : Audio Coding 3
Mode extension                           : CM (complete main)
Codec ID                                 : A_AC3
Duration                                 : 1h 23mn
Bit rate mode                            : Constant
Bit rate                                 : 192 Kbps
Channel(s)                               : 2 channels
Channel positions                        : Front: L R
Sampling rate                            : 48.0 KHz
Bit depth                                : 16 bits
Compression mode                         : Lossy
Delay relative to video                  : -5ms
Stream size                              : 115 MiB (11%)
Title                                    : Ac3
Language                                 : Italian
Default                                  : No
Forced                                   : No

Audio #2
ID                                       : 3
Format                                   : AC-3
Format/Info                              : Audio Coding 3
Mode extension                           : CM (complete main)
Codec ID                                 : A_AC3
Duration                                 : 1h 23mn
Bit rate mode                            : Constant
Bit rate                                 : 192 Kbps
Channel(s)                               : 2 channels
Channel positions                        : Front: L R
Sampling rate                            : 48.0 KHz
Bit depth                                : 16 bits
Compression mode                         : Lossy
Delay relative to video                  : -5ms
Stream size                              : 115 MiB (11%)
Title                                    : Eng
Language                                 : English
Default                                  : No
Forced                                   : No

Menu
00:00:00.000                             : :Chapter 1
00:08:17.497                             : :Chapter 2
00:14:06.429                             : :Chapter 3
00:19:27.583                             : :Chapter 4
00:21:22.114                             : :Chapter 5
00:23:54.642                             : :Chapter 6
00:28:17.779                             : :Chapter 7
00:33:12.657                             : :Chapter 8
00:38:04.574                             : :Chapter 9
00:42:14.824                             : :Chapter 10
00:47:31.932                             : :Chapter 11
00:52:49.833                             : :Chapter 12
00:55:59.898                             : :Chapter 13
01:01:54.502                             : :Chapter 14
01:11:53.726                             : :Chapter 15
01:18:01.760                             : :Chapter 16



[/spoiler]



Info: Per scaricare devi usare un client come uTorrent o Transmission
AnnounceURL
udp://tracker.coppersurfer.tk:6969/announce
Hash 49227fd4d6aa4d73ea39ae4023a07db9221e679a
Peers seeds: 10 , leech: 4
Size 0.98 GB
Completato 300x
Aggiunto 22.08.18 - 22:08:53
Uploader   robbyrs
Votazione (Voti: 1)


Condividi questo bittorrent:


html/blog:


bbcode/forum:




Aggiungi Commento


counter Sitemap